Dear visitors,

My FileServe account has been disabled.
I'll try to re-upload all files as soon as possible
Sorry for any inconvenience!


Please note that all materials on this blog are for informational
and educational purposes only. If you like them and can afford them,
please purchase the materials in order to support the authors' works.
Thank you for dropping by. Have fun!

You can use JDownloader to download files at PREMIUM SPEED!!!

It's absolutely FREE! Download here!!!

January 15, 2012

American Accent Training: Grammar (eBook+Audio)

Title: American Accent Training: Grammar
Author(s): Ann Cook
Publisher: Barron's Educational Series
ISBN-10: 0764196510
ISBN-13: 9780764196515
Date: 2009
Pages: 314
Size: 235 Mb
Format: PDF + MP3
Quality: High
Language: American English

This book and audio compact disc program instructs students of English as a second language in the elements of grammar, presenting a grammar review that emphasizes speech and correct pronunciation. The compact discs include spoken dictations for each of the book's ten chapters. Students start by writing out what they hear, and then comparing what they have written with the book's printed version. In the process, they begin learning the elements of grammar, staring with the simple present tense of the verb "to be" and progressing to all other tenses and parts of speech. Students gradually learn how to use English words and pronounce them properly in grammatically correct sentences. [+/-]


Following each chapter's introductory sentence, they are given a brief story. A short test at the end of each chapter helps them determine their learning progress. The dictations start out quite simple and become progressively more difficult from one chapter to the next. The book is filled with charts and illustrations to facilitate students' learning progress.

Download link:
http://www.fileserve.com/file/dVQ25Ap

Vocabulary Expansion

Title: Vocabulary Expansion
Author(s): Dorothy Rubin
Publisher: Macmillan
ISBN: 0024042455
Date: 2012
Pages: 83
Size: 1.08 Mb
Format: PDF
Quality: High
Language: American English

This book gives you different words that you can use when you are writing or speaking about three important topics - those of communication, emotions and movement. Each section takes a 'core' word that you probably know well and gives you the most useful synonyms for it, as well as related words with a different part of speech. There are also notes that highlight some differences of register, grammar, and collocation. Some of the words are shown together with their opposites, e.g. satisfied and dissatisfied. [+/-]


C O N T E N T S
Words that describe communication
Answer Say Tell
Argue Speak
Ask Talk

Words that describe emotions
Angry Excited Satisfied/dissatisfied
Bored Feeling Shocked
Disappointed Frightened Surprised
Embarrassed Happy Worried/not worried
Enthusiastic/not enthusiastic Sad

Words that describe movement
Arrive Move Travel
Fast Run Walk
Leave Slow

Download link:
http://www.fileserve.com/file/XEubPRF

Grammar Lessons and Strategies that Strengthen Students’ Writing

Title: Grammar Lessons and Strategies that Strengthen Students’ Writing
Level: Grades 4-8
Author(s): Laura Robb
Publisher: Scholastic Professional Books
ISBN: 0439117585
Date: 2001
Pages: 128
Size: 1.18 Mb
Format: PDF
Quality: High
Language: American English

Engaging, explicit lessons using mini-excerpts from books and students’ writing show you how to teach grammar strategically. Zero in on the common grammar glitches, and model for students how to use nouns, verbs, and adjectives effectively, catch mismatched pronoun references; make prose lively with clauses and phrases, use the active voice, and more. From learning the parts of speech to the skill of paragraphing, this book covers it, and gives you what you need to teach grammar in the context of reading and writing. For use with Grades 4-8.

Download link:
http://www.fileserve.com/file/E4y3VzG

Understanding Morphology, 2nd Edition

Title: Understanding Morphology
Author(s): Martin Haspelmath and Andrea D. Sims
Publisher: Hodder Education
ISBN: 9780340950012
Date: 2010
Pages: 383
Size: 2.5 Mb
Format: PDF
Quality: High
Language: American English

This new edition of Understanding Morphology has been fully revised in line with the latest research. It now includes 'big picture' questions to highlight central themes in morphology, as well as research exercises for each chapter. Understanding Morphology presents an introduction to the study of word structure that starts at the very beginning. Assuming no knowledge of the field of morphology on the part of the reader, the book presents a broad range of morphological phenomena from a wide variety of languages. [+/-]


Starting with the core areas of inflection and derivation, the book presents the interfaces between morphology and syntax and between morphology and phonology. The synchronic study of word structure is covered, as are the phenomena of diachronic change, such as analogy and grammaticalization. Theories are presented clearly in accessible language with the main purpose of shedding light on the data, rather than as a goal in themselves. The authors consistently draw on the best research available, thus utilizing and discussing both functionalist and generative theoretical approaches. Each chapter includes a summary, suggestions for further reading, and exercises. As such this is the ideal book for both beginning students of linguistics, or anyone in a related discipline looking for a first introduction to morphology.

Download link:
http://www.fileserve.com/file/XtGhJrG

A Girl Like You by John Locke

Title: A Girl Like You
Author(s): John Locke
Publisher: Smashwords
ISBN: 9781935670490
Date: 2011
Pages: 105
Size: 1.2 Mb
Format: PDF
Quality: High
Language: American English

When Rachel Case goes to the doctor for a routine blood test, scientists are astonished to learn she possesses a gene no one else on earth seems to have—a gene that holds the key to protecting the world from the deadliest pandemic in history. When government operatives kidnap Rachel in order to develop a vaccine, her lover, Donovan Creed, realizes the only way he can find Rachel is to enlist the help of her current husband, Sam.

Download link:
http://www.fileserve.com/file/E93bdQz

The Familiars by Adam Jay Epstein & Andrew Jacobson

Title: The Familiars
Author(s): Adam Jay Epstein & Andrew Jacobson
Publisher: HarperCollins
ISBN: 9780062009630
Date: 2010
Pages: 132
Size: 2.2 Mb
Format: PDF
Quality: High
Language: American English

Magic isn't just for wizards anymore! Finally off the tough streets, Aldwyn thinks he’s got it made. He just has to convince the other familiars—the know-it-all blue jay Skylar and the friendly tree frog Gilbert—that he’s the telekinetic cat he claims to be. But when Jack and two other wizards in training are captured by a terrible evil, it will take all of Aldwyn’s street smarts, a few good friends, and a nose for adventure to save the day.

Download link:
http://www.fileserve.com/file/kGrwN4D

December 27, 2011

Love Actually [2003] (HD BRRip+English Subtitle)

Title: Love Actually [2003] 720p BRRip H.264 AAC
Genres: Comedy | Drama | Romance
Starring: Hugh Grant, Martine McCutcheon and Liam Neeson
Release Date: 6 November 2003
Running Time: 2:10:00
Video: MPEG4 Video (H264) 1280x544 23.98fps
Audio: AAC 22050Hz stereo 47kbps
Size: 745 Mb
Format: .mp4 + .srt
Language: British English
Credit: www.imdb.com/title/tt0314331/

***Learn English by watching an English movie!*** The characters are falling in love, falling out of love, some are with right people, some are with the wrong people, some are looking to have an affair, some are in the period of mourning; a capsule summary of reality. Love begins and love ends. They flirt a lot. They are all flirting with love. At all ages and social levels, love is the theme. Romantic love and brotherly love is the hotchpotch through out the movie. Most of the movie is filmed in London, during Christmas and the characters all ended up at Heathrow airport a very uplifting note. [+/-]


General
Complete name : D:\Love Actually 720p.x264.BRRip.GokU61\Love Actually [2003].mp4
Format : MPEG-4
Format profile : Base Media
Codec ID : isom
File size : 746 MiB
Duration : 2h 10mn
Overall bit rate : 802 Kbps
Encoded date : UTC 2010-10-22 02:09:34
Tagged date : UTC 2010-10-22 02:09:34

Video
ID : 1
Format : AVC
Format/Info : Advanced Video Codec
Format profile : High@L4.0
Format settings, CABAC : Yes
Format settings, ReFrames : 8 frames
Codec ID : avc1
Codec ID/Info : Advanced Video Coding
Duration : 2h 10mn
Bit rate mode : Variable
Bit rate : 751 Kbps
Maximum bit rate : 6 309 Kbps
Width : 1 280 pixels
Height : 544 pixels
Display aspect ratio : 2.35:1
Frame rate mode : Constant
Frame rate : 23.976 fps
Color space : YUV
Chroma subsampling : 4:2:0
Bit depth : 8 bits
Scan type : Progressive
Bits/(Pixel*Frame) : 0.045
Stream size : 698 MiB (94%)
Title : Imported with GPAC 0.4.6-DEV (internal rev. 5)
Writing library : x264 core 98 r1649 c54c47d
Encoded date : UTC 2010-10-22 02:09:34
Tagged date : UTC 2010-10-22 02:10:31

Audio
ID : 2
Format : AAC
Format/Info : Advanced Audio Codec
Format version : Version 4
Format profile : LC
Format settings, SBR : Yes
Format settings, PS : No
Codec ID : 40
Duration : 2h 10mn
Bit rate mode : Variable
Bit rate : 48.0 Kbps
Maximum bit rate : 56.1 Kbps
Channel(s) : 2 channels
Channel positions : Front: L R
Sampling rate : 44.1 KHz
Stream size : 44.6 MiB (6%)
Encoded date : UTC 2010-10-22 02:10:27
Tagged date : UTC 2010-10-22 02:10:31

Screenshots

Download links:
http://www.fileserve.com/file/sSfWmGZ
http://www.fileserve.com/file/ZhAXaVb

Easy Ways to Ease Anger

Title: Easy Ways to Ease Anger
Author(s): Ambassador of the Mind
Publisher: N/A
ISBN: N/A
Date: 2008
Pages: 50
Size: 2.1 Mb
Format: PDF
Quality: High
Language: American English

Basic Knowledge about Anger .Anger has a poisonous root and sweet release. This Pali saying means that, in the beginning, anger will poison the mind, causing irritation, impatience and rage, prompting the angry persons to vent their feelings by scolding, attacking, or damaging the object of their anger. After the outburst, they will feel satisfied, which explains why anger is said to have a “sweet release.”

Download link:
http://www.fileserve.com/file/jHfgQ8X

English for Specific Purposes (Resource Book for Teachers)

Title: English for Specific Purposes (Resource Book for Teachers)
Author(s): Keith Harding
Publisher: Ox
ISBN: 9780194425759
Date: 2007
Pages: 179
Size: 42.2 Mb
Format: PDF
Quality: High
Language: American English

Gives teachers practical advice for teaching vocational English to any profession. This versatile book helps teachers identify and teach the language areas - such as health and safety, instructions, and customer relations - which are common to the majority of different vocations.

Key features:
• Over 80 generic classroom activities.
• Needs analysis helps teachers design a course that covers what students need for their working environment.
• Adaptable activities are transferable across different vocations.
• Suitable for teachers, teacher trainers, and new teachers.

Download link:
http://www.fileserve.com/file/7T2SsBZ

December 26, 2011

The Day after Tomorrow [2004] (HD BRRip+English Subtitle)

Title: The Day after Tomorrow [2004] 720p BRRip H.264 AAC
Genres: Action | Adventure | Drama | Sci-Fi | Thriller
Starring: Dennis Quaid, Jake Gyllenhaal and Emmy Rossum
Release Date: 24 May 2004
Running Time: 2:03:40
Video: MPEG4 Video (H264) 1280x544 23.98fps
Audio: AAC 48000Hz 6ch 359kbps
Size: 2.51 Gb
Format: .mp4 + .srt
Language: American English
Credit: www.imdb.com/title/tt0319262/

***Learn English by watching an English movie!*** As Paleoclimatologist named Jack Hall was in Antartica, he discovers that a huge ice sheet has been sheared off. But what he did not know is that this event would trigger a massive climate shift that would effect the world population. Meanwhile, his son, Sam was with friends in New York to attend an event. There they discover that it has been raining non-stop for the past 3 weeks, and after a series of weather related disasters that occurred over the world. Everybody soon realizes that the world is going to enter a new ice age, as the rest of the world population tries to evacuate to the warm climates of the south. [+/-]


Jack makes a daring attempt to rescue his son and his friends who are stuck in New York, who have to survive not only a massive wave, but freezing cold temperatures that could possibly kill them.

General
Format : MPEG-4
Format profile : Base Media / Version 2
Codec ID : mp42
File size : 2.51 GiB
Duration : 2h 3mn
Overall bit rate : 2 909 Kbps
Encoded date : UTC 2011-02-22 15:38:54
Tagged date : UTC 2011-02-22 15:38:54
Writing application : Yamb 2.1.0.0 [http://yamb.unite-video.com]
Copyright : TheFalcon007

Video
ID : 1
Format : AVC
Format/Info : Advanced Video Codec
Format profile : High@L4.0
Format settings, CABAC : Yes
Format settings, ReFrames : 15 frames
Codec ID : avc1
Codec ID/Info : Advanced Video Coding
Duration : 2h 3mn
Bit rate mode : Variable
Bit rate : 2 000 Kbps
Maximum bit rate : 10.5 Mbps
Width : 1 280 pixels
Height : 544 pixels
Display aspect ratio : 2.35:1
Frame rate mode : Constant
Frame rate : 23.976 fps
Color space : YUV
Chroma subsampling : 4:2:0
Bit depth : 8 bits
Scan type : Progressive
Bits/(Pixel*Frame) : 0.120
Stream size : 1.73 GiB (69%)
Writing library : x264 core 114 r1900 60ef1f8
Encoded date : UTC 2011-02-20 05:36:36
Tagged date : UTC 2011-02-22 15:40:20

Audio #1
ID : 2
Format : AAC
Format/Info : Advanced Audio Codec
Format version : Version 4
Format profile : LC
Format settings, SBR : No
Codec ID : 40
Duration : 2h 3mn
Bit rate mode : Variable
Bit rate : 352.8 Kbps
Maximum bit rate : 379 Kbps
Channel(s) : 6 channels
Channel positions : Front: L C R, Side: L R, LFE
Sampling rate : 48.0 KHz
Stream size : 318 MiB (12%)
Encoded date : UTC 2011-02-22 15:39:46
Tagged date : UTC 2011-02-22 15:40:20

Screenshots

Download links:
http://www.fileserve.com/file/MEwfHmu
http://www.fileserve.com/file/PZRXg7Q
http://www.fileserve.com/file/ZGYDWs3
http://www.fileserve.com/file/czSuBG7
http://www.fileserve.com/file/t3nWrAC
http://www.fileserve.com/file/pVft3Af

December 14, 2011

Reading for Every Child: Phonemic Awareness, Grades K-1

Title: Reading for Every Child: Phonemic Awareness, Grades K-1
Level: Grades K-1
Author(s): Anne L. Steele
Publisher: Frank Schaffer
ISBN: 9780742419575
Date: 2005
Pages: 82
Size: 2.70 Mb
Format: PDF
Quality: High
Language: American English

Based on national standards, No Child Left Behind legislation, and founded on the latest research, every teacher will be provided with instructional explanations and stimulating activities to facilitate and encourage life-long readers. Teacher tips help students auditorally recognize and identify phonemes.

Download link:
http://www.fileserve.com/file/svBrFCH

Reading for Every Child: Phonics, Grade K

Title: Reading for Every Child: Phonics, Grade K
Level: Grade K
Author(s): Linda Armstrong
Publisher: Frank Schaffer
ISBN: 9780742420601
Date: 2005
Pages: 82
Size: 3.74 Mb
Format: PDF
Quality: High
Language: American English

Based on national standards, No Child Left Behind legislation, and founded on the latest research, every teacher will be provided with instructional explanations and stimulating activities to facilitate and encourage life-long readers.
Students develop phonics skills by concentrating on beginning and ending sounds, blends, and vowel combinations. Reproducible.

Download link:
http://www.fileserve.com/file/HhCWVMQ

Reading for Every Child: Fluency, Grade K

Title: Reading for Every Child: Fluency, Grade K
Level: Grade K
Author(s): Anne Vander Woude
Publisher: Frank Schaffer
ISBN: 9780742420502
Date: 2005
Pages: 82
Size: 1.8 Mb
Format: PDF
Quality: High
Language: British American English

Drawing from nationally recognized research in fluency, Reading for Every Child: Fluency gives you the tools you need to develop fluent readers in your classroom. Incorporating a wide variety of techniques, including partner reading, repeated reading, choral reading, and readers’ theaters, this book will keep your students motivated as they make that all-important bridge between word recognition and comprehension. Activities provide opportunities for listening and reading out loud to encourage students to read with confidence and appropriate rhythm and paceing.

Download link:
http://www.fileserve.com/file/VTxQzaP

It's True! Crime Doesn't Pay

Title: It's True! Crime Doesn't Pay
Author(s): Beverley MacDonald
Publisher: Allen & Unwin
ISBN: 174114275X
Date: 2004
Pages: 96
Size: 2.05 Mb
Format: PDF
Quality: High
Language: English

This history of criminals and how to catch them is full of crazy but true stuff. From torch-bearing vigilantes to hi-tech crime scene investigators, this book joins thief-trackers in action. It journeys back to the time when a crook had to be caught red-handed to be proven guilty, to the present and how we use science to solve crimes. Even so, mysteries remain, like the Shocking Shark Arm Murder.

Download link:
http://www.fileserve.com/file/6RmuUmD

The Christmas Bus by Melody Carlson

Title: The Christmas Bus
Level: Grades K-3
Author(s): Melody Carlson
Publisher: Fleming H. Revell
ISBN: 0800718798
Date: 2006
Pages: 93
Size: 1.26 Mb
Format: PDF
Quality: High
Language: American English

The people of Christmas Valley always celebrate Christmas to the fullest extent. The mayor plays Santa, every business is holiday themed, and there's a nativity for the kids each Christmas Eve. This town knows Christmas. But this year nothing goes according to plan. Shepherd's Inn is full of strangers, Mad Myrtle is causing problems, and a young couple with a baby due any minute rolls in to the middle of town in their Partridge Family-style bus. It's hardly the holiday Christmas Valley wanted--but it may be just what they need. This charming novella is sure to become a new Christmas tradition for readers who love a great holiday story.

Download link:
http://www.fileserve.com/file/sUGKUZd

It's True! You Eat Poison Every Day

Title: It's True! You Eat Poison Every Day
Author(s): Peter Macinnis
Publisher: Allen & Unwin
ISBN: 1741146267
Date: 2006
Pages: 96
Size: 4.09 MB
Format: PDF
Quality: High
Language: English

Psst! It's true! This is the best book on POISONS you'll ever read! There's poison in pips, harm in herbs and definitely death in dyes. Poison is everywhere! Read about toxic wallpaper that killed even bedbugs. Find out why buns were bad for bun-buyers and how a poison might cure cancer. Bone up on murder mysteries, including the one about glow-in-the-dark soup. But don't tell anyone how much you know, or they might lock you up. WARNING contains toxic tales and putrid potions DO NOT SWALLOW

Download link:
http://www.fileserve.com/file/sVUm38g

December 7, 2011

Christmas: Its Origin and Associations

Title: Christmas: Its Origin and Associations
Author(s): W. F. Dawson
Republished: GALE Research Company
ISBN: N/A
Date: N/A
Pages: 329
Size: 10.06 Mb
Format: PDF
Quality: High
Language: American English

This is a reproduction of a book published before 1923. This book may have occasional imperfections such as missing or blurred pages, poor pictures, errant marks, etc. that were either part of the original artifact, or were introduced by the scanning process. We believe this work is culturally important, and despite the imperfections, have elected to bring it back into print as part of our continuing commitment to the preservation of printed works worldwide. We appreciate your understanding of the imperfections in the preservation process, and hope you enjoy this valuable book.

Download link:
http://www.fileserve.com/file/2qqJnnm

A Christmas Promise by Thomas Kinkade and Katherine Spencer

Title: A Christmas Promise
Author(s): Thomas Kinkade and Katherine Spencer
Publisher: Berkley Publishing
ISBN: 0786561734
Date: 2005
Pages: 303
Size: 2.09 Mb
Format: PDF
Quality: High
Language: American English

James Cameron, a minister who runs a mission in Central America, has decided to spend the holidays in Cape Light. But when his car collides with another car, a hint of trouble befalls this close-knit community. No one is hurt, but out-of-towner Leigh Baxter is forced to stay in town until her car is fixed. What she doesn't expect, however, is that the charm of this beautiful seaside hamlet and its citizens will soon win her over-and that she will fall in love with James, who has so generously welcomed her into his life.

But will James accept Leigh in his heart once her dark secrets come to light? In the meantime, Jessica and Sam Morgan's relationship is put to the test. More than anything else this Christmas, they want a baby to call their own. But soon they'll discover that life's most precious gifts often come in unexpected packages.

Join the entire town of Cape Light for a Christmas to remember.

Download link:
http://www.fileserve.com/file/ukqZPSZ

Christmas, Ideology and Popular Culture

Title: Christmas, Ideology and Popular Culture
Author(s): Sheila Whiteley
Publisher: Edinburgh University Press
ISBN: 9780748628094
Date: 2008
Pages: 233
Size: 1.78 Mb
Format: PDF
Quality: High
Language: English

How do we understand Christmas? What does it mean? This book is a lively introduction to the study of popular culture through one central case study. It explores the cultural, social and historical contexts of Christmas in the UK, USA and Australia, covering such topics as fiction, film, television, art, newspapers and magazines, war, popular music and carols. Chapters explore the ways in which the production of meaning is mediated by the social and cultural activities surrounding Christmas (watching Christmas films, television, listening or engaging with popular music and carols), its relationship to a set of basic values (the idealised construct of the family), social relationships (community), and the ways in which ideological discourses are used and mobilised, not least in times of conflict, terrorism and war. [+/-]


Packed with examples ranging from Charles Dickens' seminal text, A Christmas Carol, Coca-colonisation and Santa Claus, Victorian cartoons and Christmas cards, to Dr Who, The Office, 'A Fairy Tale of New York', 'Happy Christmas (War is Over)', and such dystopian films as Jingle All the Way and All I Want For Christmas, the case studies offer an incisive account of the ways in which Christmas relates to social change, and how such recent events as 9/11 and the continuing conflict in Iraq focus attention on traditional themes of community and family. Christmas, Ideology and Popular Culture offers students and scholars alike an opportunity to explore the hidden agendas of the world's most popular festival and what it means to the outsider looking in.

Download link:
http://www.fileserve.com/file/DxPdkTj

Christmas Recipes (Cookbook)

Title: Christmas Recipes (Cookbook)
Author(s): Various
Publisher: Sify Food
ISBN: N/A
Date: N/A
Pages: 56
Size: 1.29 Mb
Format: PDF
Quality: High
Language: English

Christmas Recipes:
Turkey Fry
Chicken Curry
Chicken Masala
Turkey Biryani
Potato Dumplings
Baked Seafood Au Gratin
Lamb Pepper Steak
Potato & Mushroom Gratin
Fish Molee
Cheese Cookies
Fudgy Brownie Cookies
Microwave Chocolate Cake
Carrot Cake
Date-nut Fruit Cake
Christmas Cake [+/-]

Luscious Apple Pie
Bebinca
Sweet Potato Pone
Christmas Fudge
Cheese Soup
Meatballs
Christmas Eggnog
Neoris
Kulkuls
Rum Doughnuts
Nankaties
Crab Salad
Pineapple Wine
Lemon Cheesecake
Christmas Fruitcake
Strawberry Pie
Sugar Cookie
Christmas Pudding Truffles
X-mas Porridge
Crispy Cheese Rolls
Rosemary Roast Potatoes
Almond Fried Fish
Nutty Top Chocolate Cake
Date Filled Cookies
Apricot Bars
Christmas Pudding
Fruit Cake
Goan Bibinca
Kul Kul
Carrot Cake
Chocolate Spread
Banana Salad
Christmas Salad
Christmassy Sponge
Walnut Crunchies
Chocolate Goodie
Party Sandwich
Chocolate-cheese Balls

Download link:
http://www.fileserve.com/file/G2QsS9x

50 Activities for Coaching/Mentoring

Title: 50 Activities for Coaching/Mentoring
Level: All
Author(s): Donna Berry, Charles Cadwell and Joe Fehrmann
Publisher: HRD Press
ISBN: 0874252180
Date: 1993
Pages: 299
Size: 1.35 Mb
Format: PDF
Quality: High
Language: American English

The 50 activities in this resource book have been tested with hundreds of participants to ensure their appropriateness and effectiveness for a variety of diversity training needs. Employees at all levels will be stimulated by interactively learning about cultural and gender differences, and mastering new skills for communicating more effectively in our diverse workplaces. Each activity is ready to use and includes trainer's notes and all necessary handouts and overhead transparency masters. They each take between 15 and 45 minutes to complete.

Download link:
http://www.fileserve.com/file/jSXcFdj

Essential Survival Skills

Title: Essential Survival Skills: Key tips and techniques for the great outdoors
Author(s): Bob Bridle
Publisher: Dorling Kindersley
ISBN: 0756659981
Date: 2011
Pages: 177
Size: 14.3 Mb
Format: PDF
Quality: High
Language: American English

Perfect for all ages and skill levels, the Essential Skills series is at-a-glance reference packed with instant-access, easy-to-understand tips to help you improve your game, your technique, and your creativity.

Remember, no matter how good your survival equipment, or how extensive your knowledge and skills, never underestimate the power of nature. If things aren’t going as planned, never hesitate to stop and reassess your situation and priorities, and never be afraid to turn back and try again later—the challenge will always be there tomorrow. Finally, you must always remember that the most effective method of dealing with a survival situation is to avoid getting into it in the first place. [+/-]


Essential Survival Skills is a step-by-step guide to surviving and thriving in the wilderness. Whether you are hiking or camping, learn everything you need to know to build a shelter, apply first aid, and treat various types of insect bites. The book progresses from the very basics for beginners, through all the elements essential to becoming adept at wilderness survival.

Download link:
http://www.fileserve.com/file/M9EgNzz

December 3, 2011

The Teachers' Animation Toolkit

Title: The Teachers' Animation Toolkit
Author(s): Britta Pollmüller and Martin Sercombe
Publisher: Continuum
ISBN: 9781441131072
Date: 2011
Pages: 181
Size: 1.68 Mb
Format: PDF
Quality: High
Language: British English

This toolkit, together with an extensive companion website, will give you the confidence to use animation in your classroom. From teaching basic flip book animation right through to producing an animated film, there are drawing templates for the less confident teacher artists and tried-and-tested schemes of work, plus advice on how to use animation equipment and what technology and software is available. This practical, cross-curricular resource is particularly suitable for use with students aged 11-16, although many of the activities can be adapted for older or younger students. It can be used in Art, Media Studies, ICT and many other subjects to engage learners of all styles and abilities.

Download link:
http://www.fileserve.com/file/c9ZtreZ

Teaching English in the Primary Classroom

Title: Teaching English in the Primary Classroom
Author(s): Susan Halliwell
Publisher: Longman
ISBN: 0582071097
Date: 1992
Pages: 175
Size: 5.52 Mb
Format: PDF
Quality: High
Language: American English

This is a key book for all primary teachers for it helps them understand the importance of capitalising on the enthusiasm, the motivation, the willingness to learn and participate that children bring to class. It shows you that the special abilities children have are a spring of learning for you as well. Of course this book offers practical activities which are easy and enjoyable.

Download link:
http://www.fileserve.com/file/DvYE7Eh

Reading Zone, Grades 5-7

Title: Reading Zone: Language Activities for Intermediate/Challenging Level Students
Level: Grades 5-7, Intermediate
Author(s): Edward Connor
Publisher: Ready-Ed Publications
ISBN: 1863975993
Date: 2004
Pages: 64
Size: 2.52 Mb
Format: PDF
Quality: High
Language: British English

Reading Zone is a set of fifty reading and comprehension sheets. They have been created to suit the teaching needs of upper primary school and lower secondary school students. The sheets have been composed in ten thematic groups to establish a sense of continuity and to add more interest. The themes are: Champions, Children, Fairy tales, Nursery Rhymes, Magic, Mythology, Fishing, Space, Nations and Rodents. Each theme is identified by an icon at the top left of each page. [+/-]


This set of educational materials may be used in a number of ways:

1. As the base for a term's reading experience: The students could be placed in four or five activity groups and each day groups are given different sheets within the same thematic grouping. In this way the last day of a five-day sequence may be used for a general correction and discussion period ending with the "Spot the Difference" activity sheet being done by all. It is recommended that before the students are placed in groups and set to work on the exercises, that one of the sets is worked through as a whole class activity and discussed to ensure that students know exactly what is required.

2. Teachers may choose to work on just one activity type with the whole class and progress through all the sheets in the selected type before selecting a different type. This offers the benefit of being able to concentrate more intensely on the various language developmental aspects that the sheets focus towards.

3. As individual activities: These sheets may be spread throughout the year and used as a supplement to an established reading program, as homework sheets, or simply as stand-alone activity worksheets whenever there is a need.

Download link:
http://www.fileserve.com/file/2NDjMpD

Achieving Competence, Success and Excellence in Teaching

Title: Achieving Competence, Success and Excellence in Teaching
Author(s): Mark Brundrett and Peter Silcock
Publisher: Routledge
ISBN: 0203215125
Date: 2002
Pages: 192
Size: 1.24 Mb
Format: PDF
Quality: High
Language: American English

Uniquely, the authors separate the classical teaching approaches, teacher and pupil centred, from the more contemporary, partnership approaches. They look at a variety of models of successful and quality teaching and illustrate their virtues and limitations. The book also highlights ways in which inspection and appraisal strategies can be revised to meet criteria acceptable to both teachers and the groups to whom they are accountable.

Download link:
http://www.fileserve.com/file/zEHCz7A

November 22, 2011

Using Talk to Support Writing

Title: Using Talk to Support Writing
Author(s): Ros Fisher, Susan Jones, Shirley Larkin, Debra Myhill
Publisher: SAGE Publications
ISBN: 1849201447
Date: 2010
Pages: 202
Size: 1.65 Mb
Format: PDF
Quality: High
Language: American English

Using Talk to Support Writing presents a new and innovative approach to the teaching of early writing. The authors discuss both theoretical and practical issues around using talk in the classroom to support children as they learn to write.

Set within the context of national concern for achievement in the development of writing ability, it addresses the gap in understanding early teaching and focuses on the exploration of talk and writing interface. [+/-]


This book is essential reading for any teacher, literacy coordinator or student wanting to take a serious, research-based look at writing. It offers a superb balance between discussion of how to teach writing and how to inquire into the way that writing is taught in the classroom or school. The book's structure positions the reader in a dynamic relationship to the text, which promotes an active understanding of the pedagogical decisions teachers make and of the links between theory, research inquiry and practice. This innovative approach to writing about research is both inspired and inspiring.

Download link:
http://www.fileserve.com/file/R5znj6p

Grammar to Go: How It Works and How to Use It, 3rd Edition

Title: Grammar to Go: How It Works and How to Use It
Author(s): Barbara Goldstein, Jack Waugh, Karen Linsky
Publisher: Wadsworth
ISBN: 0547171242
Date: 2010, 3rd Edition
Pages: 291
Size: 1.4 Mb
Format: PDF
Quality: High
Language: American English

Brief and basic in its coverage, GRAMMAR TO GO offers students a unique focus on sentence diagramming that helps them visualize and understand how words connect. Perfect as a primary text or as a supplement for courses with an emphasis on learning basic grammar and punctuation skills, this edition incorporates a wide range of new material to help students hone their skills--including additional traditional practice sets, more integrated assignments, increased opportunities for writing practice, and expanded discussions of each chapter's content on the book specific website. [+/-]


Contents:

Preface
Part 1 Learning Grammar Basics
Chapter 1 Getting Started
Chapter 2 Sentence Patterns
Chapter 3 Adjectives and Adverbs
Chapter 4 Phrases
Chapter 5 Verbals and Verbal Phrases
Chapter 6 Word Order Variations
Chapter 7 Clauses
Chapter 8 Types of Sentences
Part 2 Putting the Basics to Work
Chapter 9 Sentence Fragments and Run-on Sentences
Chapter 10 Commas
Chapter 11 Other Punctuation and Capitalization
Chapter 12 Subject/Verb Agreement
Chapter 13 Pronoun Usage
Chapter 14 Modifier Usage
Chapter 15 Sentence Coherence: Logic, Parallelism, and Shifts
Chapter 16 Parts of Speech: Reference and Review
Selected Answers to Chapter Exercises
Index

Download link:
http://www.fileserve.com/file/CaQfPau

7 Keys to Comprehension: Help Your Kids Read It and Get It!

Title: 7 Keys to Comprehension: Help Your Kids Read It and Get It!
Author(s): Susan Zimmermann and Chryse Hutchins
Publisher: Three Rivers Press
ISBN: 0761515496
Date: 2003
Pages: 151
Size: 1.55 Mb
Format: PDF
Quality: High
Language: American English

It's simple: If children don't understand what they read, they will never embrace reading. And that limits what they can learn while in school. This fact frightens parents, worries teachers, and ultimately hurts children.

7 Keys to Comprehension is the result of cutting-edge research. It gives parents and teachers--those who aren't already using this valuable program--practical, thoughtful advice about the seven simple thinking strategies that proficient readers use: [+/-]


- Connecting reading to their background knowledge
- Creating sensory images
- Asking questions
- Drawing inferences
- Determining what's important
- Synthesizing ideas
- Solving problems.

Easily understood, easily applied, and proven successful, this essential educational tool helps parents and teachers to turn reading into a fun and rewarding adventure.

Download link:
http://www.fileserve.com/file/Vt7YQ8g

November 18, 2011

Love: A History

Title: Love: A History
Author(s): Simon May
Publisher: Yale University Press publications
ISBN: 9780300118308
Date: 2011
Pages: 313
Size: 1.06 Mb
Format: PDF
Quality: High
Language: American English

Love unconditional, selfless, unchanging, sincere, and totally acceptingis worshipped today as the West's only universal religion. To challenge it is one of our few remaining taboos. In this pathbreaking and superbly written book, the author, philosopher, does just that, dissecting our resilient ruling ideas of love and showing how they are the product of a long and powerful cultural heritage.Tracing over 2,500 years of human thought and history, the author shows how our ideal of love developed from its Hebraic and Greek origins. [+/-]


Brilliantly, the author explores the very different philosophers and writers, both skeptics and believers, who dared to think differently: from Aristotle's perfect friendship and Ovid's celebration of sex and "the chase," to Rousseau's personal authenticity, Nietzsche's affirmation, Freud's concepts of loss and mourning, and boredom in Proust. Against our belief that love is an all-powerful solution to finding meaning, security, and happiness in life, the author reveals with great clarity what love actually is: the intense desire for someone whom we believe can ground and affirm our very existence. The feeling that "makes the world go round" turns out to be a harbinger of home--and in that sense, of the sacred.

Download link:
http://www.fileserve.com/file/G3MGATz

My First Pocket Guide to... (19 US States)

Title: My First Pocket Guide to... (19 US States)
Level: Grade 3 and up
Author(s): Carole Marsh
Publisher: Gallopade International
ISBN: N/A
Date: 2000-2011
Pages: 100 x 19
Size: 107.9 Mb
Format: PDF
Quality: High
Language: British American English

Each Pocket Guide comes with complete exercises about your state. This easy-to-use reference guide is divided into seven color-coded sections including state basic facts, geography, history, people, places, nature and miscellaneous information. This reference guide is perfect for students in grades 3 and up.

List of the books:
1. My First Pocket Guide to Arizona
2. My First Pocket Guide to California
3. My First Pocket Guide to Colorado
4. My First Pocket Guide to Delaware
5. My First Pocket Guide to Louisiana [+/-]

6. My First Pocket Guide to Maryland
7. My First Pocket Guide to Minnesota
8. My First Pocket Guide to Missouri
9. My First Pocket Guide to Nebraska
10. My First Pocket Guide to New Hampshire
11. My First Pocket Guide to New York
12. My First Pocket Guide to Ohio
13. My First Pocket Guide to Oregon
14. My First Pocket Guide to Rhode Island
15. My First Pocket Guide to South Dakota
16. My First Pocket Guide to Texas
17. My First Pocket Guide to Vermont
18. My First Pocket Guide to Washington
19. My First Pocket Guide to Wisconsin - 100

Download link:
http://www.fileserve.com/file/evFTtr3

November 17, 2011

Mix & Match Meals

Title: Mix & Match Meals: Thousand of Menus for Quick Recipes and Crowd-Pleasing Meals
Author(s): Shannon Beatty, Rachel Bozek
Publisher: DK Readers
ISBN: 9780756682361
Date: 2011 
Pages: 194
Size: 10.70 Mb
Format: PDF
Quality: High
Language: American English

Making planning and cooking a three course meal a breeze, Mix and Match Mealsis an easy to use cookbook specially designed in a split page format so that any combination of foods can be viewed all together on one page. Divided into three sections Starters, Main Courses, and Desserts Mix and Match Mealsallows readers to flip through pages, creating their own customized menu one course at a time, with 270 recipes that provide hundreds of thousands of mouthwatering combinations. From healthy low fat meals, light brunch inspired menus, or indulgent, luxurious dinners, Mix and Match Mealsis perfect for cooks who are visual and prefer to plan a menu that is both aesthetic and appetizing.

Download link:
http://www.fileserve.com/file/K5mmxUh

America's Hidden History

Title: America's Hidden History
Author(s): Kenneth C. Davis
Publisher: HarperCollins Publishers Inc
ISBN: 9780061648007
Date: 2008
Pages: 289
Size: 1.38 Mb
Format: PDF
Quality: High
Language: American English

Spanning a period from the Spanish arrival in America to George Washington's inauguration in 1789, America's Hidden History is an iconoclastic look at America's past, connecting some of the dots between history and today's headlines, and proving why Davis is truly America's teacher.

Find out:
- Which Pilgrims arrived in Florida fifty years before the Mayflower sailed.
- What Supreme Court Justice went to prison.
- What traitor is honored with a statue for his bravery.
- Which fighting woman in colonial New England scalped her Indian captors.

Download link:
http://www.fileserve.com/file/k6ug3hc

The Birth of America from before Columbus to the Revolution

Title: The Birth of America from before Columbus to the Revolution
Author(s): William R. Polk
Publisher: HarperCollins Publishers Inc
ISBN: 0060750901
Date: 2006
Pages: 418
Size: 2.62 Mb
Format: PDF
Quality: High
Language: American English

In this provocative history of colonial America, William R. Polk explores the key events and individuals that defined this critical epoch by offering vivid descriptions of the societies the Europeans came from and what they believed they were going to, while introducing the native peoples encountered in the New World and the black Africans who were brought across the Atlantic. As John Adams would point out to Thomas Jefferson, the long years that witnessed the formation of our national character and the growth of our spirit of independence were indeed the real revolution. That is the compelling story at the root of The Birth of America.

Download link:
http://www.fileserve.com/file/Tt88st7

Family Vacation (Pre-Level 1 - Learning to Read)

Title: Family Vacation
Level: Pre-Level 1
Author(s): Fiona Lock
Publisher: DK READERS
ISBN: 9780756640934
Date: 2008
Pages: 36
Size: 3.01 Mb
Format: PDF
Quality: High
Language: American English

Photographs combine with lively illustrations and engaging, age-appropriate stories in these Readers, a multilevel reading program guaranteed to capture children's interest while developing their reading skills and general knowledge. Family Vacation lets the very youngest readers join a family on an exciting vacation, filled with sunny beaches and fun.

Download link:
http://www.fileserve.com/file/frhWjDE

Growing Up with Literature, 6 Edition

Title: Growing Up with Literature
Author(s): Walter E. Sawyer, EdD
Publisher: Wadsworth
ISBN: 1111342652
Date: 2012, 6 Edition
Pages: 400
Size: 5.35 Mb
Format: PDF
Quality: High
Language: American English

GROWING UP WITH LITERATURE, Sixth Edition, provides a practical and understandable presentation of how to use children's literature/picture books to enhance literacy and language development in children ages birth to eight years. You will learn effective strategies for selecting and evaluating books, planning reading experiences, sharing stories with children, and using stories to help children deal with stress and problems (bibliotherapy). All genres of literature are addressed, including ABC/Counting books, folk and fairy tales, fables, and traditional/contemporary fiction and nonfiction. With 200 new children's literature titles, and up-to-date research on language development and brain development, this edition is on the cutting edge of knowledge in this area.

Download link:
http://www.fileserve.com/file/exkXkHU

November 14, 2011

The Proposal [2009] (HD BRRip+English Subtitle)

Title: The Proposal 2009 BRRip x264
Genres: Comedy | Drama | Romance
Starring: Sandra Bullock, Ryan Reynolds and Mary Steenburgen
Release Date: 19 June 2009
Running Time: 1:47:47
Video: MPEG4 Video (H264) 1280x544 23.98fps
Audio: AAC 48000Hz 6ch 229kbps
Size: 1.44 Gb
Format: .mp4 + .srt
Language: American English
Credit: www.imdb.com/title/tt1041829/

***Learn English by watching an English movie!*** For three years, Andrew Paxton has slaved as the assistant to Margaret Tate, hard-driving editor at a New York publisher. When Margaret, a Canadian, faces deportation for an expired visa, she hatches a scheme to marry Andrew - he agrees if she'll promise a promotion. A skeptical INS agent vows to test the couple about each other the next Monday. Andrew had plans to fly home that weekend for his grandma's 90th, so Margaret goes with him - to Sitka, Alaska - where mom, dad, and grams await. Family dynamics take over: tensions between dad and Andrew, an ex-girlfriend, Andrew's dislike of Margaret, and her past color the next few days, with the INS ready to charge Andrew with fraud. [+/-]


General
Format : MPEG-4
Format profile : Base Media
Codec ID : isom
File size : 1.45 GiB
Duration : 1h 47mn
Overall bit rate : 1 925 Kbps
Encoded date : UTC 2009-09-28 11:40:58
Tagged date : UTC 2009-09-28 11:40:58

Video
ID : 1
Format : AVC
Format/Info : Advanced Video Codec
Format profile : Main@L4.1
Format settings, CABAC : Yes
Format settings, ReFrames : 4 frames
Codec ID : avc1
Codec ID/Info : Advanced Video Coding
Duration : 1h 47mn
Bit rate mode : Variable
Bit rate : 1 692 Kbps
Maximum bit rate : 11.0 Mbps
Width : 1 280 pixels
Height : 544 pixels
Display aspect ratio : 2.35:1
Frame rate mode : Constant
Frame rate : 23.976 fps
Color space : YUV
Chroma subsampling : 4:2:0
Bit depth : 8 bits
Scan type : Progressive
Bits/(Pixel*Frame) : 0.101
Stream size : 1.27 GiB (88%)
Writing library : x264 core 76 r1271 496d79d
Encoded date : UTC 2009-09-27 08:34:17
Tagged date : UTC 2009-09-28 11:41:57

Audio
ID : 2
Format : AAC
Format/Info : Advanced Audio Codec
Format version : Version 4
Format profile : LC
Format settings, SBR : No
Codec ID : 40
Duration : 1h 47mn
Bit rate mode : Variable
Bit rate : 229 Kbps
Maximum bit rate : 311 Kbps
Channel(s) : 6 channels
Channel positions : Front: L C R, Side: L R, LFE
Sampling rate : 48.0 KHz
Stream size : 177 MiB (12%)
Encoded date : UTC 2009-09-28 11:41:49
Tagged date : UTC 2009-09-28 11:41:57

Screenshots

Download links:
http://www.fileserve.com/file/pqcKqVF
http://www.fileserve.com/file/gdg3JCy
http://www.fileserve.com/file/zV67H75
http://www.fileserve.com/file/WKNSNba

November 2, 2011

The Time Traveler's Wife [2009] (HD BRRip+English Subtitle)

Title: The Time Traveler's Wife 2009 BDRip H264 AAC-SecretMyth
Genres: Drama | Fantasy | Mystery | Romance
Starring: Eric Bana, Rachel McAdams, Ron Livingston
Release Date: 14 August 2009
Running Time: 01:47:26
Video: MPEG4 Video (H264) 1280x544 23.98fps
Audio: AAC 48000Hz 6ch 264kbps
Size: 1.67 Gb
Format: .mp4 + .srt
Language: American English
Credit: www.imdb.com/title/tt0452694/

***Learn English by watching an English movie!*** When Henry DeTamble meets Clare Abshire in a Chicago library they both understand that he is a time traveller, but she she knows much more than this about him as he has not yet been to the times and places where they have met before. He falls in love with her, as she has already with him, but his continuing unavoidable absences time travelling - and then returning with increasing knowledge of their future - makes things ever more difficult for Clare. [+/-]


General
Format : MPEG-4
Format profile : Base Media
Codec ID : isom
File size : 1.68 GiB
Duration : 1h 47mn
Overall bit rate : 2 239 Kbps
Encoded date : UTC 2010-02-01 16:17:51
Tagged date : UTC 2010-02-01 16:17:51

Video
ID : 1
Format : AVC
Format/Info : Advanced Video Codec
Format profile : Main@L4.1
Format settings, CABAC : Yes
Format settings, ReFrames : 5 frames
Codec ID : avc1
Codec ID/Info : Advanced Video Coding
Duration : 1h 47mn
Bit rate mode : Variable
Bit rate : 1 837 Kbps
Maximum bit rate : 17.2 Mbps
Width : 1 280 pixels
Height : 544 pixels
Display aspect ratio : 2.40:1
Frame rate mode : Constant
Frame rate : 23.976 fps
Color space : YUV
Chroma subsampling : 4:2:0
Bit depth : 8 bits
Scan type : Progressive
Bits/(Pixel*Frame) : 0.110
Stream size : 1.38 GiB (82%)
Writing library : x264 core 80 r1376M 3feaec2
Encoded date : UTC 2010-01-31 23:59:49
Tagged date : UTC 2010-02-01 16:19:37

Audio #1
ID : 2
Format : AAC
Format/Info : Advanced Audio Codec
Format version : Version 4
Format profile : LC
Format settings, SBR : No
Codec ID : 40
Duration : 1h 47mn
Bit rate mode : Variable
Bit rate : 264.6 Kbps
Maximum bit rate : 342 Kbps
Channel(s) : 6 channels
Channel positions : Front: L C R, Side: L R, LFE
Sampling rate : 48.0 KHz
Stream size : 204 MiB (12%)
Language : English
Encoded date : UTC 2010-02-01 16:19:06
Tagged date : UTC 2010-02-01 16:19:37

Audio #2
ID : 3
Format : AAC
Format/Info : Advanced Audio Codec
Format version : Version 4
Format profile : LC
Format settings, SBR : No
Codec ID : 40
Duration : 1h 47mn
Bit rate mode : Variable
Bit rate : 132.3 Kbps
Maximum bit rate : 181 Kbps
Channel(s) : 2 channels
Channel positions : Front: L R
Sampling rate : 48.0 KHz
Stream size : 102 MiB (6%)
Encoded date : UTC 2010-02-01 16:19:35
Tagged date : UTC 2010-02-01 16:19:37

Screenshots

Download links:
http://www.fileserve.com/file/cq4qu7V
http://www.fileserve.com/file/UyVEyZe
http://www.fileserve.com/file/NPk2N4K
http://www.fileserve.com/file/urByX3H

November 1, 2011

English Online Pack (18 eBooks)

Title: English Online Pack (18 eBooks)
Level: Intermediate
Author(s): CET
Publisher: Center for Educational Technology
ISBN: N/A
Date: 2003-2005
Pages: 52 each
Size: 342 Mb
Format: PDF
Quality: High
Language: British English

English Online Pack includes:
1. English Online: In The News, Proficiency 1
2. English Online: Making Your Mark, Proficiency 1
3. English Online: The Silver Screen, Proficiency 1
4. English Online: World Traveler, Proficiency 1
5. English Online: Circles of Contact, Proficiency 2
6. English Online: Earth Matters, Proficiency 2 [+/-]

7. English Online: Mysteries of the Mind, Proficiency 2
8. English Online: Soul of a City, Proficiency 2
9. English Online: Animal Collage, Intermediate 1
10. English Online: Personal Portfolio, Intermediate 1
11. English Online: Fashion and Fads, Intermediate 2
12. English Online: Secrets of the Sea, Intermediate 2
13. English Online: Sports Scene, Intermediate 2
14. English Online: Looking to Space, Intermediate 3
15. English Online: Music Mania, Intermediate 3
16. English Online: Name of the Game, Intermediate 3
17. English Online: The Funny Side, Intermediate 3
18. English Online: Natural Disasters

Download link:
http://www.fileserve.com/file/ebcpYk7

English Online: World Traveler, Proficiency 1

Title: English Online: World Traveler
Level: Proficiency 1
Author(s): CET
Publisher: Center for Educational Technology
ISBN: N/A
Date: 2004
Pages: 52
Size: Mb
Format: PDF
Quality: High
Language: British English

World Traveler takes a look at what is involved in traveling abroad. It is about preparing for a trip to a foreign country, travel risks and the appreciation of different social conventions and cultures. You will find out about different types of travel writing and their characteristics.

Download link:
http://www.fileserve.com/file/bDnFG5d

English Online: Personal Portfolio, Intermediate 1

Title: English Online: Personal Portfolio
Level: Intermediate 1
Author(s): CET
Publisher: Center for Educational Technology
ISBN: N/A
Date: 2005
Pages: 52
Size: 17.29 Mb
Format: PDF
Quality: High
Language: British English

English Online is a comprehensive program for Israeli students learning English as a foreign language. The program makes full use of current technology by providing students and teachers with an Internet site that contains activities based on authentic online sources.

English Online consists of a series of theme-based, self-contained modules. The complete program is designed to meet the requirements of the English curriculum from Intermediate Level Stage 1 through Proficiency Level Stage 3. [+/-]


The English Online Intermediate 1 package comprises:
• two stimulating booklets—Personal Portfolio and Animal Collage
• online instructional material that is closely integrated with the booklets
• a set of student work pages and assessment pages
• a teacher's pack that includes a teacher's guide and an audio-cassette

Personal Portfolio offers a context for students to talk about themselves and to present issues related to their personal world: their interests, friends and opinions about friendship, dreams, likes and dislikes—even their favorite foods and dishes. The booklet provides the relevant topic-related vocabulary and grammar.

Download link:
http://www.fileserve.com/file/T7EwQ4E

English Online: Music Mania, Intermediate 3

Title: English Online: Music Mania
Level: Intermediate 3
Author(s): CET
Publisher: Center for Educational Technology
ISBN: N/A
Date: 2004
Pages: 52
Size: 18.28 Mb
Format: PDF
Quality: High
Language: British English

English Online is a comprehensive program for Israeli students learning English as a foreign language. The program makes full use of current technology by providing students and teachers with an
Internet site that contains activities based on authentic online sources.

English Online consists of a series of theme-based, self-contained modules. The complete program is designed to meet the requirements of the English curriculum from Intermediate Level Stage 1 through Proficiency Level Stage 3. [+/-]


The English Online Intermediate 3 package comprises:
• four stimulating booklets-Music Mania, The Funny Side, Looking to Space and Name of the Game
• online instructional material that is closely integrated with the booklets
• a set of student work pages and assessment pages
• a teacher's pack that includes a teacher's guide and an audio-cassette

Music Mania is about the place of music in people's lives. It takes a look at musical styles, the world of fans, how musicians reach the top of the charts and musical instruments. These different sides of the world of music form a challenging context for learning English.

Download link:
http://www.fileserve.com/file/eUwVDqp

English Online: Name of the Game, Intermediate 3

Title: English Online: Name of the Game
Level: Intermediate 3
Author(s): CET
Publisher: Center for Educational Technology
ISBN: N/A
Date: 2004
Pages: 52
Size: 18.38 Mb
Format: PDF
Quality: High
Language: British English

English Online is a comprehensive program for Israeli students learning English as a foreign language. The program makes full use of current technology by providing students and teachers with an Internet site that contains activities based on authentic online sources.

English Online consists of a series of theme-based, self-contained modules. The complete program is designed to meet the requirements of the English curriculum from Intermediate Level Stage 1 through Proficiency Level Stage 3. [+/-]


The English Online Intermediate 3 package comprises:
• four stimulating booklets-Music Mania, The Funny Side, Looking to Space and Name of the Game
• online instructional material that is closely integrated with the booklets
• a set of student work pages and assessment pages
• a teacher's pack that includes a teacher's guide and an audio-cassette

Name of the Game presents a special context for learning English. The module takes a look at games in the past, present and future and examines the positive and negative effects of games on people and society.

Download link:
http://www.fileserve.com/file/jZGmyks

English Online: Secrets of the Sea, Intermediate 2

Title: English Online: Secrets of the Sea
Level: Intermediate 2
Author(s): CET
Publisher: Center for Educational Technology
ISBN: N/A
Date: 2003
Pages: 52
Size: 17.74 Mb
Format: PDF
Quality: High
Language: British English

English Online is a comprehensive program for Israeli students learning English as a foreign language. The program makes full use of current technology by providing students and teachers with an Internet site that contains activities based on authentic online sources.

English Online consists of a series of theme-based, self-contained modules. The complete program is designed to meet the requirements of the English curriculum from Intermediate Level Stage 1 through Proficiency Level Stage 3. [+/-]


The English Online Intermediate 2 package comprises:
• four stimulating booklets-Fashion and Fads, Natural Disasters, Sports Scene and Secrets of the Sea
• online instructional material that is closely integrated with the booklets
• a set of student work pages and assessment pages
• a teacher's pack that includes a teacher's guide and an audio-cassette

Secrets of the Sea provides an original context for learning English by examining the topic of the sea from a variety of points of view, such as myths, exploration, communication and diving.

Download link:
http://www.fileserve.com/file/F7nykqC

English Online: Sports Scene, Intermediate 2

Title: English Online: Sports Scene
Level: Intermediate 2
Author(s): CET
Publisher: Center for Educational Technology
ISBN: N/A
Date: 2003
Pages: 52
Size: 18.81 Mb
Format: PDF
Quality: High
Language: British English

English Online is a comprehensive program for Israeli students learning English as a foreign language. The program makes full use of current technology by providing students and teachers with an Internet site that contains activities based on authentic online sources.

English Online consists of a series of theme-based, self-contained modules. The complete program is designed to meet the requirements of the English curriculum from Intermediate Level Stage 1 through Proficiency Level Stage 3. [+/-]


The English Online Intermediate 2 package comprises:
• four stimulating booklets-Fashion and Fads, Natural Disasters, Sports Scene and Secrets of the Sea
• online instructional material that is closely integrated with the booklets
• a set of student work pages and assessment pages
• a teacher's pack that includes a teacher's guide and an audio-cassette

Sports Scene provides an original context for learning English by examining a variety of inter-related topics, such as the personal challenge represented by sport, physical fitness, the spirit of sport and sport as a show.

Download link:
http://www.fileserve.com/file/8u7WHGj

English Online: Soul of a City, Proficiency 2

Title: English Online: Soul of a City
Level: Proficiency 2
Author(s): CET
Publisher: Center for Educational Technology
ISBN: N/A
Date: 2003
Pages: 52
Size: 22.23 Mb
Format: PDF
Quality: High
Language: British English

English Online is a comprehensive program for Israeli students learning English as a foreign language. The program makes full use of current technology by providing students and teachers with an Internet site that contains activities based on authentic online sources.

English Online consists of a series of theme-based, self-contained modules. The complete program is designed to meet the requirements of the English curriculum from Intermediate Level Stage 1 through Proficiency Level Stage 3. [+/-]


The English Online Proficiency 2 package comprises:
• four stimulating booklets-Circles of Contact, Soul of a City, Earth Matters and Mysteries of the Mind
• online instructional material that is closely integrated with the booklets
• a set of student work pages and assessment pages
• a teacher's pack

Download link:
http://www.fileserve.com/file/sPvBQwe

FileServe